找回密码
 注册

QQ登录

只需一步,快速开始

[索尼4K演示片]4K色彩演示 2015(高码率 HEVC 60fps)[2160P/MP4/1.15GB]

3639
回复
43013
查看
打印 上一主题 下一主题
  [复制链接]
[索尼4K演示片]4K色彩演示 2015(高码率 HEVC 60fps)[2160P/MP4/1.15GB] [索尼4K演示片]4K色彩演示 2015(高码率 HEVC 60fps)[2160P/MP4/1.15GB] [索尼4K演示片]4K色彩演示 2015(高码率 HEVC 60fps)[2160P/MP4/1.15GB] [索尼4K演示片]4K色彩演示 2015(高码率 HEVC 60fps)[2160P/MP4/1.15GB] [索尼4K演示片]4K色彩演示 2015(高码率 HEVC 60fps)[2160P/MP4/1.15GB] [索尼4K演示片]4K色彩演示 2015(高码率 HEVC 60fps)[2160P/MP4/1.15GB] [索尼4K演示片]4K色彩演示 2015(高码率 HEVC 60fps)[2160P/MP4/1.15GB] [索尼4K演示片]4K色彩演示 2015(高码率 HEVC 60fps)[2160P/MP4/1.15GB] [索尼4K演示片]4K色彩演示 2015(高码率 HEVC 60fps)[2160P/MP4/1.15GB] [索尼4K演示片]4K色彩演示 2015(高码率 HEVC 60fps)[2160P/MP4/1.15GB]

General
Complete name : Sony_Color.4K.DEMO.2015.mp4
Format : MPEG-4
Format version : Base Media
Codec ID : isom (isom)
File size : 1.15 GiB
Duration : 2 min 06 s
Overall bit rate mode : Variable
Overall bit rate : 78.2 Mbps
Encoded date : UTC 2015-01-26 04:27:03
Tagged date : UTC 2015-01-26 04:27:03

Video
ID : 1
Format : HEVC
Format/Info : High Efficiency Video Coding
Format profile : Main@L5.1@Main
Codec ID : hvc1
Codec ID/Info : High Efficiency Video Coding
Duration : 2 min 06 s
Bit rate : 78.1 Mbps
Maximum bit rate : 120 Mbps
Width : 3840 pixels
Height : 2160 pixels
Display aspect ratio : 16:9
Frame rate mode : Constant
Frame rate : 59.940 (60000/1001) FPS
Color space : YUV
Chroma subsampling : 4:2:0
Bit depth : 8 bits
Bits/(Pixel*Frame) : 0.157
Stream size : 1.15 GiB (100%)
Encoded date : UTC 2015-01-26 04:26:34
Tagged date : UTC 2015-01-26 04:27:04
Color range : Limited
Color primaries : BT.709
Transfer characteristics : BT.709
Matrix coefficients : BT.709

Audio
ID : 2
Format : AAC
Format/Info : Advanced Audio Codec
Mode extension : LC
Codec ID : 40
Duration : 2 min 06 s
Source duration : 2 min 06 s
Bit rate mode : Variable
Bit rate : 192 Kbps
Maximum bit rate : 197 Kbps
Channel(s) : 2 channels
Channel positions : Front: L  R
Sampling rate : 48.0 KHz
Frame rate : 46.875 FPS (1024 spf)
Compression mode : Lossy
Stream size : 2.89 MiB (0%)
Source stream size : 2.89 MiB (0%)
Language : English
Encoded date : UTC 2015-01-26 04:26:34
Tagged date : UTC 2015-01-26 04:27:04
播放器 : Potplaye/MPC-HC
建议在大屏幕电视上观看才能体验最佳效果

MP4百度云盘

游客,如果您要查看本帖隐藏内容请回复




分享到:  QQ好友和群QQ好友和群
收藏
收藏12
转播
转播
分享
分享
分享
淘帖0
赞
1
踩
0
回复

使用道具 举报

2楼(沙发)#
2016-10-5 12:08:16 只看该作者
支持楼主,4K123有你更精彩!
TV应用下载
回复 支持 反对

使用道具 举报

3楼(板凳)#
2016-10-5 12:10:06 只看该作者
又是涨姿势了
回复 支持 反对

使用道具 举报

4楼(地板)#
2016-10-5 12:21:46 只看该作者
支持楼主,4K123有你更精彩!
回复 支持 反对

使用道具 举报

5楼#
2016-10-5 12:21:57 只看该作者
35435463634646
回复 支持 反对

使用道具 举报

6楼#
2016-10-5 12:26:02 只看该作者
[4K] [索尼4K演示片]4K色彩演示 2015(高码率 HEVC 60fps)[2160P/MP4/1.15GB]
回复 支持 1 反对 0

使用道具 举报

7楼#
2016-10-5 12:28:49 只看该作者
真是难得给力的资源啊。
回复 支持 反对

使用道具 举报

8楼#
2016-10-5 12:44:16 只看该作者
索尼4K演示片]4K色彩演示 2015(高码率 HEVC 60fps)激情欣赏!!!!
回复 支持 反对

使用道具 举报

9楼#
2016-10-5 12:45:21 只看该作者
和客家话艰苦环境环境
回复 支持 反对

使用道具 举报

10楼#
2016-10-5 12:57:40 只看该作者
支持楼主,4K123有你更精彩!
回复 支持 反对

使用道具 举报

您需要登录后才可以回帖 登录 | 注册