找回密码
 注册

QQ登录

只需一步,快速开始

索尼4K HDR视频演示片《拉斯维加斯夜景》H265 60fps 10bit[1.6G/百度]

2749
回复
32104
查看
打印 上一主题 下一主题
[复制链接]
索尼4K HDR视频演示片《拉斯维加斯夜景》下载下来,发现在2个不同设备上播放,效果完全不一样,一台颜色过曝、一台色彩亮丽噪点也相比较明显。HDR视频还是要专属HDR设备来播放才行。

具体对比效果请看图,手机拍摄的,用PS拼在了一起。


索尼4K HDR视频演示片《拉斯维加斯夜景》H265 60fps 10bit[1.6G/百度]

  1. General
  2. Complete name                  : G:\[HDR]拉斯维加斯.MP4
  3. Format                         : MPEG-4
  4. Format profile                 : Base Media
  5. Codec ID                       : isom (isom)
  6. File size                      : 1.62 GiB
  7. Duration                       : 3mn 1s
  8. Overall bit rate mode          : Variable
  9. Overall bit rate               : 76.5 Mbps

  10. Video
  11. ID                             : 1
  12. Format                         : HEVC
  13. Format/Info                    : High Efficiency Video Coding
  14. Format profile                 : Main 10@L5.1@High
  15. Codec ID                       : hvc1
  16. Codec ID/Info                  : High Efficiency Video Coding
  17. Duration                       : 3mn 1s
  18. Bit rate                       : 76.3 Mbps
  19. Maximum bit rate               : 143 Mbps
  20. Width                          : 3 840 pixels
  21. Height                         : 2 160 pixels
  22. Display aspect ratio           : 16:9
  23. Frame rate mode                : Constant
  24. Frame rate                     : 59.940 (60000/1001) fps
  25. Color space                    : YUV
  26. Chroma subsampling             : 4:2:0 (Type 2)
  27. Bit depth                      : 10 bits
  28. Bits/(Pixel*Frame)             : 0.154
  29. Stream size                    : 1.62 GiB (100%)
  30. Encoded date                   : UTC 2016-03-18 06:22:20
  31. Tagged date                    : UTC 2016-03-18 05:22:41
  32. Color range                    : Limited
  33. Color primaries                : BT.2020
  34. Transfer characteristics       : SMPTE ST 2084
  35. Matrix coefficients            : BT.2020 non-constant

  36. Audio
  37. ID                             : 2
  38. Format                         : AAC
  39. Format/Info                    : Advanced Audio Codec
  40. Format profile                 : LC
  41. Codec ID                       : 40
  42. Duration                       : 3mn 1s
  43. Source duration                : 3mn 1s
  44. Bit rate mode                  : Variable
  45. Bit rate                       : 192 Kbps
  46. Maximum bit rate               : 197 Kbps
  47. Channel(s)                     : 2 channels
  48. Channel positions              : Front: L R
  49. Sampling rate                  : 48.0 KHz
  50. Frame rate                     : 46.875 fps (1024 spf)
  51. Compression mode               : Lossy
  52. Stream size                    : 4.16 MiB (0%)
  53. Source stream size             : 4.16 MiB (0%)
  54. Language                       : English
复制代码


喜欢的可以对比测试体验下HDR。

百度网盘下载:
游客,如果您要查看本帖隐藏内容请回复

分享到:  QQ好友和群QQ好友和群
收藏
收藏4
转播
转播
分享
分享
分享
淘帖0
赞
0
踩
0
回复

使用道具 举报

2楼(沙发)#
匿名  发表于 1970-1-1 08:00:00
post_deleted
影视快搜下载
回复 支持 反对

使用道具

3楼(板凳)#
2017-6-17 18:03:02 只看该作者
看起来好像不错的样子
回复 支持 反对

使用道具 举报

4楼(地板)#
2017-6-17 18:04:15 只看该作者
支持楼主,4K123有你更精彩!
回复 支持 反对

使用道具 举报

5楼#
2017-6-17 18:06:41 只看该作者
必须下载看这部电影!
回复 支持 反对

使用道具 举报

6楼#
2017-6-17 18:08:24 只看该作者
好%多謝版主的無私發佈分享!
回复 支持 反对

使用道具 举报

7楼#
2017-6-17 18:12:28 只看该作者
刚才去商场的各个品牌电视上测试一段120fps的视频,的确没一台能播放
回复 支持 反对

使用道具 举报

8楼#
2017-6-17 18:15:49 只看该作者
谢谢楼主的辛苦分享,强烈支持!
回复 支持 反对

使用道具 举报

9楼#
2017-6-17 18:16:25 只看该作者
果断马克mark
回复 支持 反对

使用道具 举报

您需要登录后才可以回帖 登录 | 注册